Carried by the Wind: Tsukikage Ran (Eng Dubbed)[Web-DL] :: Nyaa ISS

Carried by the Wind: Tsukikage Ran (Eng Dubbed)[Web-DL]

Category:
Date:
2022-11-25 01:58 UTC
Submitter:
Seeders:
1
Information:
No information.
Leechers:
0
File size:
2.7 GiB
Completed:
50
Info hash:
d91e602053ab4d1946be33f99dd49c9a8c108914
### [My Anime List - Kazemakase Tsukikage Ran](https://myanimelist.net/anime/606/Kazemakase_Tsukikage_Ran) ![alt text](https://cdn.myanimelist.net/images/anime/5/16745l.jpg "Poster") General Complete name : C:\..\S01 -E01 - She's Tough, for a Woman-658164.mp4 Format : MPEG-4 Format profile : Base Media Codec ID : isom (isom/iso2/avc1/mp41) File size : 215 MiB Duration : 23 min 53 s Overall bit rate mode : Variable Overall bit rate : 1 258 kb/s Writing application : Lavf59.34.101 Video ID : 1 Format : AVC Format/Info : Advanced Video Codec Format profile : [email protected] Format settings : CABAC / 4 Ref Frames Format settings, CABAC : Yes Format settings, Reference frames : 4 frames Codec ID : avc1 Codec ID/Info : Advanced Video Coding Duration : 23 min 53 s Source duration : 23 min 53 s Bit rate : 1 126 kb/s #### Width : 854 pixels #### Height : 626 pixels Display aspect ratio : 4:3 Frame rate mode : Variable Frame rate : 23.976 (24000/1001) FPS Minimum frame rate : 23.974 FPS Maximum frame rate : 23.981 FPS Color space : YUV Chroma subsampling : 4:2:0 Bit depth : 8 bits Scan type : Progressive Bits/(Pixel*Frame) : 0.088 Stream size : 192 MiB (89%) Source stream size : 192 MiB (89%) Writing library : x264 core 157 Encoding settings : cabac=1 / ref=4 / deblock=1:0:0 / analyse=0x3:0x133 / me=umh / subme=8 / psy=1 / psy_rd=1.00:0.00 / mixed_ref=1 / me_range=16 / chroma_me=1 / trellis=0 / 8x8dct=1 / cqm=0 / deadzone=21,11 / fast_pskip=1 / chroma_qp_offset=-2 / threads=1 / lookahead_threads=1 / sliced_threads=0 / nr=0 / decimate=1 / interlaced=0 / bluray_compat=0 / constrained_intra=0 / bframes=4 / b_pyramid=2 / b_adapt=2 / b_bias=0 / direct=3 / weightb=1 / open_gop=0 / weightp=2 / keyint=96 / keyint_min=49 / scenecut=0 / intra_refresh=0 / rc_lookahead=40 / rc=crf / mbtree=1 / crf=1.0 / qcomp=0.60 / qpmin=0 / qpmax=69 / qpstep=4 / vbv_maxrate=1200 / vbv_bufsize=960 / crf_max=0.0 / nal_hrd=none / filler=0 / ip_ratio=1.41 / aq=1:1.00 mdhd_Duration : 1433223 Codec configuration box : avcC Audio ID : 2 Format : AAC LC Format/Info : Advanced Audio Codec Low Complexity Codec ID : mp4a-40-2 Duration : 23 min 53 s Bit rate mode : Variable Bit rate : 126 kb/s Maximum bit rate : 129 kb/s Channel(s) : 2 channels Channel layout : L R Sampling rate : 44.1 kHz Frame rate : 43.066 FPS (1024 SPF) Compression mode : Lossy Stream size : 21.5 MiB (10%) #### Language : English Default : Yes Alternate group : 1

File list

  • Carried by the Wind Tsukikage Ran (Dubbed)
    • S01 -E01 - She's Tough, for a Woman-658164.mp4 (215.0 MiB)
    • S01 -E02 - Sake Made the Tears Sting-658165.mp4 (213.6 MiB)
    • S01 -E03 - Suddenly I Was a Mother-658166.mp4 (216.5 MiB)
    • S01 -E04 - I Was a Target Before I Knew It-658167.mp4 (215.6 MiB)
    • S01 -E05 - It Was Pretty Amazing When I Stripped-658168.mp4 (214.9 MiB)
    • S01 -E06 - The Mole Was in the Wrong Place-658169.mp4 (212.5 MiB)
    • S01 -E07 - I Buzzed With Electricity-658170.mp4 (214.7 MiB)
    • S01 -E08 - There Was No God in This World-658171.mp4 (215.0 MiB)
    • S01 -E09 - I Counted on an Enemy-658172.mp4 (215.4 MiB)
    • S01 -E10 - The European Girl Was Huge-658173.mp4 (215.1 MiB)
    • S01 -E11 - Vengeance Made Himself an Enemy-658174.mp4 (213.4 MiB)
    • S01 -E12 - I Was So Crucified, I Didn't Know What to Do-658175.mp4 (213.6 MiB)
    • S01 -E13 - She Hid a Romance in the Past-658176.mp4 (212.9 MiB)