Mushoku.Tensei.Jobless.Reincarnation.S01.1080p.Blu-Ray.10-Bit.Dual-Audio.TrueHD.x265-iAHD :: Nyaa ISS

Mushoku.Tensei.Jobless.Reincarnation.S01.1080p.Blu-Ray.10-Bit.Dual-Audio.TrueHD.x265-iAHD

Category:
Date:
2023-03-18 22:50 UTC
Submitter:
Seeders:
36
Information:
No information.
Leechers:
5
File size:
57.3 GiB
Completed:
1773
Info hash:
e89c1193fa75dfabe2e50934a7e3c4eaae205494
Video ID : 1 Format : HEVC Format/Info : High Efficiency Video Coding Format profile : Main 10@L5@Main Codec ID : V_MPEGH/ISO/HEVC Duration : 23 min 42 s Bit rate : 11.7 Mb/s Width : 1 920 pixels Height : 1 080 pixels Display aspect ratio : 16:9 Frame rate mode : Constant Frame rate : 23.976 (24000/1001) FPS Color space : YUV Chroma subsampling : 4:2:0 (Type 0) Bit depth : 10 bits Bits/(Pixel*Frame) : 0.235 Stream size : 1.93 GiB (81%) Writing library : x265 3.5+1-f0c1022b6:[Windows][GCC 10.2.0][64 bit] 10bit Encoding settings : cpuid=1111039 / frame-threads=4 / numa-pools=16 / wpp / no-pmode / no-pme / no-psnr / no-ssim / log-level=2 / input-csp=1 / input-res=1920x1080 / interlace=0 / total-frames=0 / level-idc=0 / high-tier=1 / uhd-bd=0 / ref=6 / no-allow-non-conformance / no-repeat-headers / annexb / no-aud / no-eob / no-eos / no-hrd / info / hash=0 / no-temporal-layers / open-gop / min-keyint=24 / keyint=240 / gop-lookahead=0 / bframes=16 / b-adapt=2 / b-pyramid / bframe-bias=0 / rc-lookahead=50 / lookahead-slices=4 / scenecut=40 / no-hist-scenecut / radl=0 / no-splice / no-intra-refresh / ctu=32 / min-cu-size=8 / no-rect / no-amp / max-tu-size=32 / tu-inter-depth=1 / tu-intra-depth=3 / limit-tu=0 / rdoq-level=2 / dynamic-rd=0.00 / no-ssim-rd / signhide / tskip / nr-intra=0 / nr-inter=0 / no-constrained-intra / no-strong-intra-smoothing / max-merge=3 / limit-refs=3 / limit-modes / me=3 / subme=3 / merange=57 / temporal-mvp / no-frame-dup / no-hme / weightp / no-weightb / no-analyze-src-pics / deblock=1:1 / no-sao / no-sao-non-deblock / rd=4 / selective-sao=0 / no-early-skip / rskip / no-fast-intra / tskip-fast / no-cu-lossless / no-b-intra / no-splitrd-skip / rdpenalty=0 / psy-rd=0.80 / psy-rdoq=2.00 / no-rd-refine / no-lossless / cbqpoffs=0 / crqpoffs=0 / rc=crf / crf=16.0 / qcomp=0.60 / qpstep=4 / stats-write=0 / stats-read=0 / ipratio=1.40 / pbratio=1.30 / aq-mode=3 / aq-strength=1.25 / cutree / zone-count=0 / no-strict-cbr / qg-size=32 / no-rc-grain / qpmax=69 / qpmin=0 / no-const-vbv / sar=1 / overscan=0 / videoformat=5 / range=0 / colorprim=1 / transfer=1 / colormatrix=1 / chromaloc=1 / chromaloc-top=0 / chromaloc-bottom=0 / display-window=0 / cll=0,0 / min-luma=0 / max-luma=1023 / log2-max-poc-lsb=8 / vui-timing-info / vui-hrd-info / slices=1 / no-opt-qp-pps / no-opt-ref-list-length-pps / no-multi-pass-opt-rps / scenecut-bias=0.05 / no-opt-cu-delta-qp / no-aq-motion / no-sbrc / no-hdr10 / no-hdr10-opt / no-dhdr10-opt / no-idr-recovery-sei / analysis-reuse-level=0 / analysis-save-reuse-level=0 / analysis-load-reuse-level=0 / scale-factor=0 / refine-intra=0 / refine-inter=0 / refine-mv=1 / refine-ctu-distortion=0 / no-limit-sao / ctu-info=0 / no-lowpass-dct / refine-analysis-type=0 / copy-pic=1 / max-ausize-factor=1.0 / no-dynamic-refine / no-single-sei / no-hevc-aq / no-svt / no-field / qp-adaptation-range=1.00 / scenecut-aware-qp=0conformance-window-offsets / right=0 / bottom=0 / decoder-max-rate=0 / no-vbv-live-multi-pass / no-mcstf Language : Japanese Default : Yes Forced : No Color range : Limited Color primaries : BT.709 Transfer characteristics : BT.709 Matrix coefficients : BT.709 Audio #1 ID : 2 Format : MLP FBA Format/Info : Meridian Lossless Packing FBA Commercial name : Dolby TrueHD Codec ID : A_TRUEHD Duration : 23 min 42 s Bit rate mode : Variable Bit rate : 1 552 kb/s Maximum bit rate : 2 844 kb/s Channel(s) : 6 channels Channel layout : L R C LFE Ls Rs Sampling rate : 48.0 kHz Frame rate : 1 200.000 FPS (40 SPF) Compression mode : Lossless Stream size : 263 MiB (11%) Language : English Default : Yes Forced : No Audio #2 ID : 3 Format : MLP FBA Format/Info : Meridian Lossless Packing FBA Commercial name : Dolby TrueHD Codec ID : A_TRUEHD Duration : 23 min 42 s Bit rate mode : Variable Bit rate : 1 072 kb/s Maximum bit rate : 1 656 kb/s Channel(s) : 2 channels Channel layout : L R Sampling rate : 48.0 kHz Frame rate : 1 200.000 FPS (40 SPF) Compression mode : Lossless Stream size : 182 MiB (7%) Language : Japanese Default : Yes Forced : No Text #1 ID : 4 Format : PGS Muxing mode : zlib Codec ID : S_HDMV/PGS Codec ID/Info : Picture based subtitle format used on BDs/HD-DVDs Duration : 1 min 37 s Bit rate : 18.6 kb/s Frame rate : 0.194 FPS Count of elements : 19 Stream size : 222 KiB (0%) Title : Signs / Songs Language : English Default : Yes Forced : No Text #2 ID : 5 Format : PGS Muxing mode : zlib Codec ID : S_HDMV/PGS Codec ID/Info : Picture based subtitle format used on BDs/HD-DVDs Duration : 23 min 34 s Bit rate : 60.6 kb/s Frame rate : 0.524 FPS Count of elements : 741 Stream size : 10.2 MiB (0%) Title : Dialogue Language : English Default : No Forced : No Menu 00:00:00.000 : en:Chapter 01 00:02:33.028 : en:Chapter 02 00:12:19.030 : en:Chapter 03 00:22:05.032 : en:Chapter 04 00:23:35.039 : en:Chapter 05

File list

  • Mushoku.Tensei.Jobless.Reincarnation.S01.1080p.Blu-Ray.10-Bit.Dual-Audio.TrueHD.x265-iAHD
    • Specials
      • Mushoku.Tensei.Jobless.Reincarnation.S00E01.1080p.Blu-Ray.10-Bit.Dual-Audio.TrueHD.x265-iAHD.mkv (2.4 GiB)
    • Mushoku.Tensei.Jobless.Reincarnation.S01E01.1080p.Blu-Ray.10-Bit.Dual-Audio.TrueHD.x265-iAHD.mkv (2.4 GiB)
    • Mushoku.Tensei.Jobless.Reincarnation.S01E02.1080p.Blu-Ray.10-Bit.Dual-Audio.TrueHD.x265-iAHD.mkv (2.4 GiB)
    • Mushoku.Tensei.Jobless.Reincarnation.S01E03.1080p.Blu-Ray.10-Bit.Dual-Audio.TrueHD.x265-iAHD.mkv (1.9 GiB)
    • Mushoku.Tensei.Jobless.Reincarnation.S01E04.1080p.Blu-Ray.10-Bit.Dual-Audio.TrueHD.x265-iAHD.mkv (2.4 GiB)
    • Mushoku.Tensei.Jobless.Reincarnation.S01E05.1080p.Blu-Ray.10-Bit.Dual-Audio.TrueHD.x265-iAHD.mkv (2.7 GiB)
    • Mushoku.Tensei.Jobless.Reincarnation.S01E06.1080p.Blu-Ray.10-Bit.Dual-Audio.TrueHD.x265-iAHD.mkv (2.8 GiB)
    • Mushoku.Tensei.Jobless.Reincarnation.S01E07.1080p.Blu-Ray.10-Bit.Dual-Audio.TrueHD.x265-iAHD.mkv (2.6 GiB)
    • Mushoku.Tensei.Jobless.Reincarnation.S01E08.1080p.Blu-Ray.10-Bit.Dual-Audio.TrueHD.x265-iAHD.mkv (2.6 GiB)
    • Mushoku.Tensei.Jobless.Reincarnation.S01E09.1080p.Blu-Ray.10-Bit.Dual-Audio.TrueHD.x265-iAHD.mkv (2.2 GiB)
    • Mushoku.Tensei.Jobless.Reincarnation.S01E10.1080p.Blu-Ray.10-Bit.Dual-Audio.TrueHD.x265-iAHD.mkv (2.4 GiB)
    • Mushoku.Tensei.Jobless.Reincarnation.S01E11.1080p.Blu-Ray.10-Bit.Dual-Audio.TrueHD.x265-iAHD.mkv (2.6 GiB)
    • Mushoku.Tensei.Jobless.Reincarnation.S01E12.1080p.Blu-Ray.10-Bit.Dual-Audio.TrueHD.x265-iAHD.mkv (2.4 GiB)
    • Mushoku.Tensei.Jobless.Reincarnation.S01E13.1080p.Blu-Ray.10-Bit.Dual-Audio.TrueHD.x265-iAHD.mkv (2.4 GiB)
    • Mushoku.Tensei.Jobless.Reincarnation.S01E14.1080p.Blu-Ray.10-Bit.Dual-Audio.TrueHD.x265-iAHD.mkv (2.2 GiB)
    • Mushoku.Tensei.Jobless.Reincarnation.S01E15.1080p.Blu-Ray.10-Bit.Dual-Audio.TrueHD.x265-iAHD.mkv (2.6 GiB)
    • Mushoku.Tensei.Jobless.Reincarnation.S01E16.1080p.Blu-Ray.10-Bit.Dual-Audio.TrueHD.x265-iAHD.mkv (2.3 GiB)
    • Mushoku.Tensei.Jobless.Reincarnation.S01E17.1080p.Blu-Ray.10-Bit.Dual-Audio.TrueHD.x265-iAHD.mkv (2.2 GiB)
    • Mushoku.Tensei.Jobless.Reincarnation.S01E18.1080p.Blu-Ray.10-Bit.Dual-Audio.TrueHD.x265-iAHD.mkv (2.6 GiB)
    • Mushoku.Tensei.Jobless.Reincarnation.S01E19.1080p.Blu-Ray.10-Bit.Dual-Audio.TrueHD.x265-iAHD.mkv (2.1 GiB)
    • Mushoku.Tensei.Jobless.Reincarnation.S01E20.1080p.Blu-Ray.10-Bit.Dual-Audio.TrueHD.x265-iAHD.mkv (2.3 GiB)
    • Mushoku.Tensei.Jobless.Reincarnation.S01E21.1080p.Blu-Ray.10-Bit.Dual-Audio.TrueHD.x265-iAHD.mkv (2.2 GiB)
    • Mushoku.Tensei.Jobless.Reincarnation.S01E22.1080p.Blu-Ray.10-Bit.Dual-Audio.TrueHD.x265-iAHD.mkv (2.4 GiB)
    • Mushoku.Tensei.Jobless.Reincarnation.S01E23.1080p.Blu-Ray.10-Bit.Dual-Audio.TrueHD.x265-iAHD.mkv (2.1 GiB)
Amazing work as always iAHQ. Thanks
Also wanted to keep everyone upto date in regards to my Google drive backups of iAHQ releases. Drive 2 got nuked by a DMCA takedown and am in the process of rebuilding it starting with the most recent releases. Drive 1 is still up at the moment and Drive 2 will be up soon thanks to my new fibre. Drive 2 naming and structure will be the same as drive 1 once everything's uploaded. Drive 1: Series: https://drive.google.com/drive/folders/19BzwPWw9YOQ9CVVmQe6ixGgY7FCnr5Gl Movies: https://drive.google.com/drive/folders/1laFXSXru1RtMj029iRxxn-Kr4YFJ3DUc Drive 2: Movies: https://drive.google.com/drive/folders/1cEd0ma2BWcwNjRlLBDUEggI5RlPHaOTj Series: https://drive.google.com/drive/folders/1wf4U3XvtJWHEBLwSeU5PghkO769-kbn4
@iAHQ I hope you can upload Mars Red soon, npz just uploaded the US release but I dont think my memory will handle big files lol
Just stream it from the Google drive. Saves you buying more storage I'll foot the bill ;)
Bless ps4 trophies keep it up
Thanks Saj__92, it's just my way of paying iAHQs generosity forward so aslong as iAHQ keeps going I will too.
@PS4Trophies Im not a big fan of streaming on google drive lol, I was just humbly wondering if iAHQ would use npz upload and add their own features to upload Mars Red in the future similar to Sabikui Bisco? cuz when npz uploaded the series I saw both Ember and iAHQ upload the series right after with their own features which I was very grateful for. anyway keep up the good work cant wait for more US releases from iAHQ
Well tbh GDrive has never let me down yet and it saves me storing over 6TB locally lol. Its great for on the go aswell as i just use a android file manager with GDrive support to push it to VLC :). I'm sure iAHQ has their secretive plans and will suprise us soon.
Godlike work on this!
Update on my Drive 1. Its down at the moment for some spring cleaning. Should be back up soon.