[MagicStar] Seishun Musical Comedy oddboys EP02 [WEBDL] [1080p] [AMZN] :: Nyaa ISS

[MagicStar] Seishun Musical Comedy oddboys EP02 [WEBDL] [1080p] [AMZN]

Category:
Date:
2024-07-04 03:39 UTC
Submitter:
Seeders:
8
Information:
Leechers:
2
File size:
1.7 GiB
Completed:
255
Info hash:
1b91c6ce66aec461f5bffbeb0fa79e45864eeb6a
HD 1080p from Prime Video. Use CBR bitrate mode. ************** We are planning to upload all Prime Video Japan Dramas and Movies, we need your Support! ************** Support Us Ali (Zhifubao / QR code): https://i.ibb.co/FWV2ggm/1660626347125.png PayPalMe: https://www.paypal.com/paypalme/sakuragikenji BTC (USDT): 19y5NF6voysif7PeJLv86Hf186ZS1i4rwu ETH: 0x807B4eec355Cfa65500BeE65A992a9a0d8432697 LTC: LUC2dTQkte7muv5oUUuRNJimLJvi9pgZUQ ************** ![alt text](https://i.ibb.co/PFtyZ96/115b48a5e61661d64213f7706436e8456411bf95202382516fc620999b6ba132.jpg) ![alt text](https://i.ibb.co/cYdBbnv/Seishun-Musical-Comedy-oddboys-EP02-1080p-AMZN-WEB-DL-DDP2-0-H-264-Magic-Star-mkv.jpg) ``` General Unique ID : 266762814674664724581208221498296415437 (0xC8B0A6376ABEF787C77FC39DE302B4CD) Complete name : Seishun.Musical.Comedy.oddboys.EP02.1080p.AMZN.WEB-DL.DDP2.0.H.264-MagicStar.mkv Format : Matroska Format version : Version 4 File size : 1.70 GiB Duration : 24 min 2 s Overall bit rate mode : Constant Overall bit rate : 10.1 Mb/s Frame rate : 29.970 FPS Encoded date : 2024-07-04 03:35:04 UTC Writing application : mkvmerge v50.0.0 ('Awakenings') 64-bit Writing library : libebml v1.4.0 + libmatroska v1.6.2 Cover : Yes Attachments : cover.jpg Video ID : 1 Format : AVC Format/Info : Advanced Video Codec Format profile : High@L4 Format settings : CABAC / 4 Ref Frames Format settings, CABAC : Yes Format settings, Reference fra : 4 frames Codec ID : V_MPEG4/ISO/AVC Duration : 24 min 2 s Bit rate mode : Constant Bit rate : 10 000 kb/s Width : 1 920 pixels Height : 1 080 pixels Display aspect ratio : 16:9 Frame rate mode : Constant Frame rate : 29.970 (29970/1000) FPS Original frame rate : 29.970 (30000/1001) FPS Color space : YUV Chroma subsampling : 4:2:0 Bit depth : 8 bits Scan type : Progressive Bits/(Pixel*Frame) : 0.161 Stream size : 1.66 GiB (98%) Default : Yes Forced : No Color range : Limited Color primaries : BT.709 Transfer characteristics : BT.709 Matrix coefficients : BT.709 Audio ID : 2 Format : E-AC-3 Format/Info : Enhanced AC-3 Commercial name : Dolby Digital Plus Codec ID : A_EAC3 Duration : 24 min 2 s Bit rate mode : Constant Bit rate : 224 kb/s Channel(s) : 2 channels Channel layout : L R Sampling rate : 48.0 kHz Frame rate : 31.250 FPS (1536 SPF) Compression mode : Lossy Stream size : 38.5 MiB (2%) Title : 日本語 [オリジナル] Language : Japanese Service kind : Complete Main Default : Yes Forced : No ```

File list