[MagicStar] Ryousangata Riko - Saigo no Plamo Joshi no Jinsei Kumitateki - EP02 [WEBDL] [1080p] [JPN_SUB] :: Nyaa ISS

[MagicStar] Ryousangata Riko - Saigo no Plamo Joshi no Jinsei Kumitateki - EP02 [WEBDL] [1080p] [JPN_SUB]

Category:
Date:
2024-07-05 09:34 UTC
Submitter:
Seeders:
26
File size:
506.9 MiB
Completed:
983
Info hash:
7057c144a984bc6d9599d4818d783870a58d20d8
HD 1080p from TVer. Japanese subtitles added. ![alt text](https://i.ibb.co/b2tdWkH/ryosangatariko2024-pg-01.jpg) ![alt text](https://i.ibb.co/fQYd0yF/Magic-Star-Ryousangata-Riko-Saigo-no-Plamo-Joshi-no-Jinsei-Kumitateki-EP02-WEBDL-1080p-mkv.jpg) ``` General Unique ID : 194004029112837022769866997893874589726 (0x91F3D1205C0FF153EF50FC0EC78C201E) Complete name : [MagicStar] Ryousangata Riko - Saigo no Plamo Joshi no Jinsei Kumitateki - EP02 [WEBDL] [1080p].mkv Format : Matroska Format version : Version 4 File size : 507 MiB Duration : 24 min 36 s Overall bit rate mode : Variable Overall bit rate : 2 881 kb/s Frame rate : 29.970 FPS Encoded date : 2024-07-05 08:41:46 UTC Writing application : mkvmerge v50.0.0 ('Awakenings') 64-bit Writing library : libebml v1.4.0 + libmatroska v1.6.2 Video ID : 1 Format : AVC Format/Info : Advanced Video Codec Format profile : High@L4 Format settings : CABAC / 4 Ref Frames Format settings, CABAC : Yes Format settings, Reference fra : 4 frames Codec ID : V_MPEG4/ISO/AVC Duration : 24 min 36 s Bit rate mode : Variable Bit rate : 2 687 kb/s Maximum bit rate : 4 045 kb/s Width : 1 920 pixels Height : 1 080 pixels Display aspect ratio : 16:9 Frame rate mode : Constant Frame rate : 29.970 (29970/1000) FPS Original frame rate : 29.970 (30000/1001) FPS Color space : YUV Chroma subsampling : 4:2:0 Bit depth : 8 bits Scan type : Progressive Bits/(Pixel*Frame) : 0.043 Stream size : 473 MiB (93%) Default : Yes Forced : No Color range : Limited Color primaries : BT.709 Transfer characteristics : BT.709 Matrix coefficients : BT.709 Audio ID : 2 Format : AAC LC Format/Info : Advanced Audio Codec Low Complexity Codec ID : A_AAC-2 Duration : 24 min 36 s Bit rate : 192 kb/s Channel(s) : 2 channels Channel layout : L R Sampling rate : 48.0 kHz Frame rate : 46.875 FPS (1024 SPF) Compression mode : Lossy Stream size : 33.7 MiB (7%) Title : 日本語 [オリジナル] Language : Japanese Default : Yes Forced : No ```

File list