[MagicStar] Yaiteru Futari ~ Kousai 0-nichi Kekkon kara Koi wo Hajimeyou ~ EP01 [WEBDL] [1080p] [AMZN] [JPN_SUB] :: Nyaa ISS

[MagicStar] Yaiteru Futari ~ Kousai 0-nichi Kekkon kara Koi wo Hajimeyou ~ EP01 [WEBDL] [1080p] [AMZN] [JPN_SUB]

Category:
Date:
2024-07-05 09:34 UTC
Submitter:
Seeders:
17
Information:
Leechers:
6
File size:
1.2 GiB
Completed:
686
Info hash:
26e4ca82537fd25bd1d5c6c4fba3c8f119768307
HD 1080p from Prime Video. Use CBR bitrate mode. Japanese subtitles added. ************** We are planning to upload all Prime Video Japan Dramas and Movies, we need your Support! ************** Support Us Ali (Zhifubao / QR code): https://i.ibb.co/FWV2ggm/1660626347125.png PayPalMe: https://www.paypal.com/paypalme/sakuragikenji BTC (USDT): 19y5NF6voysif7PeJLv86Hf186ZS1i4rwu ETH: 0x807B4eec355Cfa65500BeE65A992a9a0d8432697 LTC: LUC2dTQkte7muv5oUUuRNJimLJvi9pgZUQ ************** ![alt text](https://i.ibb.co/RcVsFxx/f299d274f68b72b2d8952a5a8fd296ed4a24c12e16864053676789d4eb93104f.jpg) ![alt text](https://i.ibb.co/9vx91Ms/Yaiteru-Futari-Kousai-0-nichi-Kekkon-kara-Koi-wo-Hajimeyou-EP01-1080p-AMZN-WEB-DL-DDP2-0-H-264-Magic.jpg) ``` General Unique ID : 238321904806573493127203416318314743761 (0xB34B2118F491D0038AAE927DE46707D1) Complete name : Yaiteru.Futari.Kousai.0.nichi.Kekkon.kara.Koi.wo.Hajimeyou.EP01.1080p.AMZN.WEB-DL.DDP2.0.H.264-MagicStar.mkv Format : Matroska Format version : Version 4 File size : 1.21 GiB Duration : 23 min 20 s Overall bit rate mode : Constant Overall bit rate : 7 416 kb/s Frame rate : 29.970 FPS Encoded date : 2024-07-05 09:12:52 UTC Writing application : mkvmerge v50.0.0 ('Awakenings') 64-bit Writing library : libebml v1.4.0 + libmatroska v1.6.2 Cover : Yes Attachments : cover.png Video ID : 1 Format : AVC Format/Info : Advanced Video Codec Format profile : High@L4 Format settings : CABAC / 4 Ref Frames Format settings, CABAC : Yes Format settings, Reference fra : 4 frames Codec ID : V_MPEG4/ISO/AVC Duration : 23 min 20 s Bit rate mode : Constant Bit rate : 7 185 kb/s Nominal bit rate : 10 000 kb/s Width : 1 920 pixels Height : 1 080 pixels Display aspect ratio : 16:9 Frame rate mode : Constant Frame rate : 29.970 (29970/1000) FPS Original frame rate : 29.970 (30000/1001) FPS Color space : YUV Chroma subsampling : 4:2:0 Bit depth : 8 bits Scan type : Progressive Bits/(Pixel*Frame) : 0.116 Stream size : 1.17 GiB (97%) Default : Yes Forced : No Color range : Limited Color primaries : BT.709 Transfer characteristics : BT.709 Matrix coefficients : BT.709 Audio ID : 2 Format : E-AC-3 Format/Info : Enhanced AC-3 Commercial name : Dolby Digital Plus Codec ID : A_EAC3 Duration : 23 min 20 s Bit rate mode : Constant Bit rate : 224 kb/s Channel(s) : 2 channels Channel layout : L R Sampling rate : 48.0 kHz Frame rate : 31.250 FPS (1536 SPF) Compression mode : Lossy Stream size : 37.4 MiB (3%) Title : 日本語 [オリジナル] Language : Japanese Service kind : Complete Main Default : Yes Forced : No ```

File list