[Zexto] Kamen Rider Gotchard - EP43 [AbemaTV][WEB-DL][1080p] :: Nyaa ISS

[Zexto] Kamen Rider Gotchard - EP43 [AbemaTV][WEB-DL][1080p]

Category:
Date:
2024-07-07 01:58 UTC
Submitter:
Seeders:
3
Information:
No information.
Leechers:
0
File size:
721.6 MiB
Completed:
90
Info hash:
8688d8092d3a41c714bb9769964f1b0d58a8e8d0
# Kamen Rider Gotchard - Episode 43 *** Hi, Zexto & Dex again... Follow me on [twitter](https://twitter.com/Zextokar_28) to keep up to date. Special Thanks to [TheDex98](https://twitter.com/thedex1998). #### These raws are extracted from AbemaTV. They have the Super Hero Time intro. Enjoy. *** ![Image1](https://image.p-c2-x.abema-tv.com/image/programs/87-1653_s1794_p47193/thumb001.png) *** ``` General Complete name : Kamen.Rider.Gotchard.EP43.1080p.AbemaTV.WEB-DL.AAC.x264-ZEXTO_DEX.mp4 Format : MPEG-4 Format profile : Base Media Codec ID : isom (isom/iso2/avc1/mp41) File size : 722 MiB Duration : 24 min 1 s Overall bit rate mode : Variable Overall bit rate : 4 201 kb/s Writing application : Lavf58.27.103 Video ID : 1 Format : AVC Format/Info : Advanced Video Codec Format profile : [email protected] Format settings : CABAC / 4 Ref Frames Format settings, CABAC : Yes Format settings, Reference frames : 4 frames Codec ID : avc1 Codec ID/Info : Advanced Video Coding Duration : 24 min 0 s Bit rate : 4 000 kb/s Width : 1 920 pixels Height : 1 080 pixels Display aspect ratio : 16:9 Frame rate mode : Constant Frame rate : 29.970 (30000/1001) FPS Color space : YUV Chroma subsampling : 4:2:0 Bit depth : 8 bits Scan type : Progressive Bits/(Pixel*Frame) : 0.064 Stream size : 687 MiB (95%) Writing library : x264 core 148 r265 3b70645 Encoding settings : cabac=1 / ref=2 / deblock=1:0:0 / analyse=0x1:0x111 / me=hex / subme=7 / psy=1 / psy_rd=1.00:0.00 / mixed_ref=1 / me_range=16 / chroma_me=1 / trellis=1 / 8x8dct=0 / cqm=0 / deadzone=21,11 / fast_pskip=1 / chroma_qp_offset=-2 / threads=9 / lookahead_threads=1 / sliced_threads=0 / nr=0 / decimate=1 / interlaced=0 / bluray_compat=0 / constrained_intra=0 / bframes=3 / b_pyramid=2 / b_adapt=1 / b_bias=0 / direct=1 / weightb=1 / open_gop=0 / weightp=2 / keyint=1000 / keyint_min=501 / scenecut=0 / intra_refresh=0 / rc_lookahead=40 / rc=2pass / mbtree=1 / bitrate=4000 / ratetol=1.0 / qcomp=0.60 / qpmin=0 / qpmax=69 / qpstep=4 / cplxblur=20.0 / qblur=0.5 / ip_ratio=1.40 / aq=1:1.00 Codec configuration box : avcC Audio ID : 2 Format : AAC LC Format/Info : Advanced Audio Codec Low Complexity Codec ID : mp4a-40-2 Duration : 24 min 1 s Bit rate mode : Variable Bit rate : 192 kb/s Maximum bit rate : 211 kb/s Channel(s) : 2 channels Channel layout : L R Sampling rate : 44.1 kHz Frame rate : 43.066 FPS (1024 SPF) Compression mode : Lossy Stream size : 33.1 MiB (5%) Default : Yes Alternate group : 1 ```

File list

  • Kamen.Rider.Gotchard.EP43.1080p.AbemaTV.WEB-DL.AAC.x264-ZEXTO_DEX.mp4 (721.6 MiB)