[MagicStar] Taiari Deshita. ~ Ojousama wa Kakutou Game Nante Shinai ~ EP06 [WEBDL] [1080p] :: Nyaa ISS

[MagicStar] Taiari Deshita. ~ Ojousama wa Kakutou Game Nante Shinai ~ EP06 [WEBDL] [1080p]

Category:
Date:
2024-07-08 17:16 UTC
Submitter:
Seeders:
11
File size:
558.5 MiB
Completed:
428
Info hash:
6c0cf16c5407284bd2710cf261492eb4671d6ad6
HD 1080p from TVer. ![alt text](https://i.ibb.co/MZqKCn0/Tai-arideshita-1.jpg) ![alt text](https://i.ibb.co/jMgMCgr/Magic-Star-Taiari-Deshita-Ojousama-wa-Kakutou-Game-Nante-Shinai-EP06-WEBDL-1080p-mkv.jpg) ``` General Unique ID : 27174411762892290872163723082917153380 (0x147199F0FE757220677A373770AF0A64) Complete name : [MagicStar] Taiari Deshita. ~ Ojousama wa Kakutou Game Nante Shinai ~ EP06 [WEBDL] [1080p].mkv Format : Matroska Format version : Version 4 File size : 559 MiB Duration : 27 min 2 s Overall bit rate : 2 888 kb/s Frame rate : 29.970 FPS Encoded date : 2024-07-07 23:23:10 UTC Writing application : mkvmerge v50.0.0 ('Awakenings') 64-bit Writing library : libebml v1.4.0 + libmatroska v1.6.2 Video ID : 1 Format : AVC Format/Info : Advanced Video Codec Format profile : High@L4 Format settings : CABAC / 4 Ref Frames Format settings, CABAC : Yes Format settings, Reference fra : 4 frames Codec ID : V_MPEG4/ISO/AVC Duration : 27 min 1 s Bit rate : 2 694 kb/s Width : 1 920 pixels Height : 1 080 pixels Display aspect ratio : 16:9 Frame rate mode : Constant Frame rate : 29.970 (29970/1000) FPS Original frame rate : 29.970 (30000/1001) FPS Color space : YUV Chroma subsampling : 4:2:0 Bit depth : 8 bits Scan type : Progressive Bits/(Pixel*Frame) : 0.043 Stream size : 521 MiB (93%) Default : Yes Forced : No Color range : Limited Color primaries : BT.709 Transfer characteristics : BT.709 Matrix coefficients : BT.709 Audio ID : 2 Format : AAC LC Format/Info : Advanced Audio Codec Low Complexity Codec ID : A_AAC-2 Duration : 27 min 2 s Bit rate : 192 kb/s Channel(s) : 2 channels Channel layout : L R Sampling rate : 48.0 kHz Frame rate : 46.875 FPS (1024 SPF) Compression mode : Lossy Stream size : 37.1 MiB (7%) Title : 日本語 [オリジナル] Language : Japanese Default : Yes Forced : No ```

File list