[neoDESU] Saint Cecilia and Pastor Lawrence [Season 1] [BD 1080p x265 HEVC OPUS AAC] [Dual Audio] Shiro Seijo to Kuro Bokushi :: Nyaa ISS

[neoDESU] Saint Cecilia and Pastor Lawrence [Season 1] [BD 1080p x265 HEVC OPUS AAC] [Dual Audio] Shiro Seijo to Kuro Bokushi

Category:
Date:
2024-07-10 17:01 UTC
Submitter:
Seeders:
32
Information:
Leechers:
11
File size:
2.7 GiB
Completed:
454
Info hash:
160795f6b65bfdc6ad7894fff891fb54de26c42f
![](https://i.lensdump.com/i/6BKULK.png) *Come hang out in **[Discord](https://discord.gg/47Q7FdB54e)*** #### **[Saint Cecilia and Pastor Lawrence [Season 1]](https://myanimelist.net/anime/52082/Shiro_Seijo_to_Kuro_Bokushi)** --- **Synopsis** In a small church atop a hill, Pastor Lawrence looks after Saint Cecilia. Her presence is a beacon of hope for the villagers, as her mysterious powers protect them from the weakness of their minds and outside evils. While she appears dignified in front of the villagers, Cecilia allows her lazy side to show when alone with the pastor. Although Cecilia is the guardian of the people, Lawrence is determined to shield her from harm. Unbeknownst to Lawrence, Cecilia harbors a huge crush on him. She accompanies him on his shopping trips and provides him with divine protection every day. Despite Lawrence remaining oblivious to her true feelings, Cecilia continues to shower him with obvious displays of affection as the bond between them grows. ![](https://a.l3n.co/i/z5tHc7.png) --- **Language Options** I included two simple scripts that you can apply to these files to do the following (Windows only): 1. Make [Single Audio] Japanese: Throws out *English audio* and *Signs&Songs subtitles* tracks 2. Make [Single Audio] English: Throws out *Japanese audio* and *Dialogue subtitles* tracks To apply these put all the video files into the *Language Options* folder and run the .bat file. *Don't combine them and only use them once together with the base files.* --- **Source** 🗃️ Video and JPN Audio (JPN BDMV): **[Ronny]** 🗃️ ENG Audio (WEB): **[[Yameii]](https://nyaa.iss.one/view/1697432)** 🗃️ Subtitles: **[DiabloTripleA]** *Thank you all for making this possible <3* --- **Media Info** ``` General Unique ID : 178774130381420190156420214688985158071 (0x867EA5252A21FCEBE998F02FAA0C91B7) Complete name : Saint Cecilia and Pastor Lawrence - S01E01.mkv Format : Matroska Format version : Version 4 File size : 248 MiB Duration : 23 min 41 s Overall bit rate : 1 462 kb/s Encoded date : UTC 2024-07-09 21:34:01 Writing application : mkvmerge v72.0.0 ('Minuano (Six-eight)') 64-bit Writing library : libebml v1.4.4 + libmatroska v1.7.1 Attachments : arial.ttf / arialbd.ttf / ariali.ttf / comic.ttf / comicbd.ttf / comici.ttf / DFHANN~1.TTF / Rosemary.TTF / GandhiSans-Regular.otf / GANDHI~2.OTF Video ID : 1 Format : HEVC Format/Info : High Efficiency Video Coding Format profile : Main 10@L4@High Codec ID : V_MPEGH/ISO/HEVC Duration : 23 min 41 s Bit rate : 1 169 kb/s Width : 1 920 pixels Height : 1 080 pixels Display aspect ratio : 16:9 Frame rate mode : Constant Frame rate : 23.976 (24000/1001) FPS Color space : YUV Chroma subsampling : 4:2:0 Bit depth : 10 bits Bits/(Pixel*Frame) : 0.024 Stream size : 198 MiB (80%) Writing library : x265 3.5+37+12-4e46995bc:[Windows][MSVC 1931][64 bit] 10bit Default : Yes Forced : No Audio #1 ID : 2 Format : AAC LC Format/Info : Advanced Audio Codec Low Complexity Codec ID : A_AAC-2 Duration : 23 min 40 s Bit rate : 128 kb/s Channel(s) : 2 channels Channel layout : L R Sampling rate : 44.1 kHz Frame rate : 43.066 FPS (1024 SPF) Compression mode : Lossy Stream size : 21.7 MiB (9%) Title : English Language : English Default : Yes Forced : No Audio #2 ID : 3 Format : Opus Codec ID : A_OPUS Duration : 23 min 41 s Bit rate : 129 kb/s Channel(s) : 2 channels Channel layout : L R Sampling rate : 48.0 kHz Frame rate : 50.000 FPS (960 SPF) Bit depth : 32 bits Compression mode : Lossy Stream size : 21.8 MiB (9%) Title : Japanese Language : Japanese Default : No Forced : No Text #1 ID : 4 Format : ASS Codec ID : S_TEXT/ASS Codec ID/Info : Advanced Sub Station Alpha Duration : 20 min 57 s Bit rate : 45 b/s Frame rate : 0.062 FPS Count of elements : 78 Compression mode : Lossless Stream size : 6.93 KiB (0%) Title : Signs & Songs Language : English Default : No Forced : Yes Text #2 ID : 5 Format : ASS Codec ID : S_TEXT/ASS Codec ID/Info : Advanced Sub Station Alpha Duration : 23 min 36 s Bit rate : 180 b/s Frame rate : 0.339 FPS Count of elements : 480 Compression mode : Lossless Stream size : 31.2 KiB (0%) Title : Dialogue Language : English Default : Yes Forced : No Menu 00:00:00.000 : :Intro 00:02:09.980 : :OP 00:03:39.990 : :Episode 00:21:51.960 : :ED 00:23:21.960 : :Outro ```

File list

  • [neoDESU] Saint Cecilia and Pastor Lawrence [Season 1] [BD 1080p x265 HEVC OPUS AAC] [Dual Audio]
    • Language Options
      • 1. Make [Single Audio] English.bat (254 Bytes)
      • 2. Make [Single Audio] Japanese.bat (254 Bytes)
      • mkvmerge.exe (9.6 MiB)
      • readme.txt (511 Bytes)
    • Saint Cecilia and Pastor Lawrence - S01E01.mkv (247.7 MiB)
    • Saint Cecilia and Pastor Lawrence - S01E02.mkv (211.9 MiB)
    • Saint Cecilia and Pastor Lawrence - S01E03.mkv (221.1 MiB)
    • Saint Cecilia and Pastor Lawrence - S01E04.mkv (209.7 MiB)
    • Saint Cecilia and Pastor Lawrence - S01E05.mkv (222.3 MiB)
    • Saint Cecilia and Pastor Lawrence - S01E06.mkv (230.4 MiB)
    • Saint Cecilia and Pastor Lawrence - S01E07.mkv (230.2 MiB)
    • Saint Cecilia and Pastor Lawrence - S01E08.mkv (222.6 MiB)
    • Saint Cecilia and Pastor Lawrence - S01E09.mkv (213.5 MiB)
    • Saint Cecilia and Pastor Lawrence - S01E10.mkv (217.3 MiB)
    • Saint Cecilia and Pastor Lawrence - S01E11.mkv (253.7 MiB)
    • Saint Cecilia and Pastor Lawrence - S01E12.mkv (231.0 MiB)